osu file format v14

[General]
AudioFilename: overdrive.mp3
AudioLeadIn: 1500
PreviewTime: 76250
Countdown: 0
SampleSet: Soft
StackLeniency: 0.7
Mode: 3
LetterboxInBreaks: 0
WidescreenStoryboard: 1

[Editor]
DistanceSpacing: 0.9
BeatDivisor: 8
GridSize: 8
TimelineZoom: 1.5

[Metadata]
Title:OVER DRIVE
TitleUnicode:OVER DRIVE
Artist:Falcom Sound Team jdk
ArtistUnicode:Falcom Sound Team jdk
Creator:pporse
Version:Kawa's Insane
Source:イース・オリジン
Tags:kawawa kawaee Ys Origin japanese rock arpg video game instrumental j.d.k. SUPER ARRANGE OST
BeatmapID:555884
BeatmapSetID:239964

[Difficulty]
HPDrainRate:8
CircleSize:7
OverallDifficulty:8
ApproachRate:5
SliderMultiplier:1.4
SliderTickRate:1

[Events]
//Background and Video events
0,0,"204042-aliya06.jpg",0,0
//Break Periods
//Storyboard Layer 0 (Background)
//Storyboard Layer 1 (Fail)
//Storyboard Layer 2 (Pass)
//Storyboard Layer 3 (Foreground)
//Storyboard Sound Samples

[TimingPoints]
2000,375,4,2,0,30,1,0
77000,-100,4,2,0,30,0,1
99500,-100,4,2,0,30,0,0
101000,-100,4,2,0,30,0,1
113000,-100,4,2,0,30,0,0

[HitObjects]
475,192,2000,128,2,4250:0:0:0:0:
36,192,2000,1,4,0:0:0:0:
256,192,2000,1,4,0:0:0:0:
329,192,2000,1,0,0:0:0:0:
36,192,2750,1,0,0:0:0:0:
36,192,3500,1,0,0:0:0:0:
256,192,4156,1,0,0:0:0:0:
36,192,4250,1,0,0:0:0:0:
182,192,4250,1,0,0:0:0:0:
329,192,4500,1,0,0:0:0:0:
402,192,4750,1,0,0:0:0:0:
475,192,5000,128,2,6500:0:0:0:0:
36,192,5000,1,4,0:0:0:0:
256,192,5000,1,4,0:0:0:0:
36,192,5750,1,0,0:0:0:0:
36,192,6500,1,4,0:0:0:0:
329,192,6500,128,6,7250:0:0:0:0:
36,192,7250,1,0,0:0:0:0:
256,192,7343,1,0,0:0:0:0:
109,192,7437,1,0,0:0:0:0:
329,192,7531,1,0,0:0:0:0:
182,192,7625,1,0,0:0:0:0:
402,192,7718,1,0,0:0:0:0:
256,192,7812,1,0,0:0:0:0:
109,192,7906,1,0,0:0:0:0:
475,192,8000,128,2,9125:0:0:0:0:
256,192,8000,1,0,0:0:0:0:
182,192,8187,1,8,0:0:0:0:
329,192,8187,1,8,0:0:0:0:
109,192,8375,1,0,0:0:0:0:
256,192,8468,1,0,0:0:0:0:
36,192,8562,1,8,0:0:0:0:
329,192,8562,1,8,0:0:0:0:
182,192,8750,1,0,0:0:0:0:
109,192,8937,1,8,0:0:0:0:
256,192,8937,1,8,0:0:0:0:
36,192,9031,1,0,0:0:0:0:
402,192,9125,128,2,9500:0:0:0:0:
182,192,9218,1,0,0:0:0:0:
256,192,9312,1,8,0:0:0:0:
109,192,9312,1,8,0:0:0:0:
109,192,9500,1,0,0:0:0:0:
475,192,9500,128,2,11000:0:0:0:0:
182,192,9687,1,8,0:0:0:0:
329,192,9687,1,8,0:0:0:0:
109,192,9875,1,0,0:0:0:0:
256,192,9968,1,0,0:0:0:0:
36,192,10062,1,8,0:0:0:0:
402,192,10062,1,8,0:0:0:0:
182,192,10250,1,0,0:0:0:0:
109,192,10437,1,8,0:0:0:0:
402,192,10437,1,8,0:0:0:0:
329,192,10531,1,0,0:0:0:0:
182,192,10718,1,0,0:0:0:0:
109,192,10812,1,8,0:0:0:0:
402,192,10812,1,8,0:0:0:0:
256,192,10906,1,0,0:0:0:0:
36,192,11000,128,2,12500:0:0:0:0:
329,192,11000,1,0,0:0:0:0:
182,192,11093,1,0,0:0:0:0:
256,192,11187,1,8,0:0:0:0:
402,192,11187,1,8,0:0:0:0:
329,192,11375,1,0,0:0:0:0:
182,192,11562,1,8,0:0:0:0:
402,192,11562,1,8,0:0:0:0:
329,192,11750,1,0,0:0:0:0:
182,192,11937,1,8,0:0:0:0:
475,192,11937,1,8,0:0:0:0:
256,192,12031,1,0,0:0:0:0:
402,192,12218,1,0,0:0:0:0:
256,192,12312,1,8,0:0:0:0:
475,192,12312,1,8,0:0:0:0:
329,192,12500,1,0,0:0:0:0:
109,192,12500,128,2,14000:0:0:0:0:
182,192,12687,1,8,0:0:0:0:
402,192,12687,1,8,0:0:0:0:
329,192,12781,1,0,0:0:0:0:
256,192,12875,1,0,0:0:0:0:
402,192,12968,1,0,0:0:0:0:
36,192,13062,1,8,0:0:0:0:
475,192,13062,1,8,0:0:0:0:
329,192,13156,1,0,0:0:0:0:
182,192,13250,1,0,0:0:0:0:
329,192,13343,1,0,0:0:0:0:
182,192,13437,1,0,0:0:0:0:
329,192,13531,1,0,0:0:0:0:
182,192,13625,1,0,0:0:0:0:
329,192,13718,1,0,0:0:0:0:
182,192,13812,1,0,0:0:0:0:
329,192,13906,1,0,0:0:0:0:
36,192,14000,1,0,0:0:0:0:
475,192,14000,1,0,0:0:0:0:
182,192,14093,1,0,0:0:0:0:
256,192,14187,1,0,0:0:0:0:
329,192,14281,1,0,0:0:0:0:
36,192,14375,1,2,0:0:0:0:
402,192,14375,1,6,0:0:0:0:
475,192,14375,1,6,0:0:0:0:
182,192,14375,1,2,0:0:0:0:
402,192,14750,1,0,0:0:0:0:
329,192,14843,1,0,0:0:0:0:
256,192,14937,1,0,0:0:0:0:
182,192,15031,1,0,0:0:0:0:
36,192,15125,1,6,0:0:0:0:
109,192,15125,1,6,0:0:0:0:
475,192,15125,1,2,0:0:0:0:
329,192,15125,1,2,0:0:0:0:
256,192,15406,1,0,0:0:0:0:
402,192,15500,1,0,0:0:0:0:
109,192,15500,1,0,0:0:0:0:
182,192,15593,1,0,0:0:0:0:
256,192,15687,1,0,0:0:0:0:
329,192,15781,1,0,0:0:0:0:
182,192,15875,1,2,0:0:0:0:
402,192,15875,1,6,0:0:0:0:
475,192,15875,1,6,0:0:0:0:
36,192,15875,1,2,0:0:0:0:
402,192,16250,1,0,0:0:0:0:
256,192,16250,1,0,0:0:0:0:
329,192,16531,1,0,0:0:0:0:
182,192,16531,1,0,0:0:0:0:
109,192,16812,1,0,0:0:0:0:
256,192,16812,1,0,0:0:0:0:
36,192,17000,1,0,0:0:0:0:
109,192,17093,1,0,0:0:0:0:
182,192,17187,1,0,0:0:0:0:
256,192,17281,1,0,0:0:0:0:
329,192,17375,1,2,0:0:0:0:
475,192,17375,1,2,0:0:0:0:
109,192,17375,1,6,0:0:0:0:
36,192,17375,1,6,0:0:0:0:
402,192,17750,1,0,0:0:0:0:
329,192,17843,1,0,0:0:0:0:
256,192,17937,1,0,0:0:0:0:
182,192,18031,1,0,0:0:0:0:
402,192,18125,1,6,0:0:0:0:
36,192,18125,1,2,0:0:0:0:
256,192,18125,1,2,0:0:0:0:
475,192,18125,1,6,0:0:0:0:
329,192,18406,1,0,0:0:0:0:
36,192,18500,1,0,0:0:0:0:
475,192,18500,1,0,0:0:0:0:
109,192,18593,1,0,0:0:0:0:
182,192,18687,1,0,0:0:0:0:
256,192,18781,1,0,0:0:0:0:
475,192,18875,1,2,0:0:0:0:
329,192,18875,1,2,0:0:0:0:
109,192,18875,1,6,0:0:0:0:
36,192,18875,1,6,0:0:0:0:
109,192,19250,1,8,0:0:0:0:
329,192,19343,1,8,0:0:0:0:
182,192,19437,1,8,0:0:0:0:
402,192,19531,1,8,0:0:0:0:
256,192,19625,1,8,0:0:0:0:
475,192,19718,1,8,0:0:0:0:
329,192,19812,1,8,0:0:0:0:
182,192,19906,1,8,0:0:0:0:
36,192,20000,1,0,0:0:0:0:
109,192,20093,1,0,0:0:0:0:
182,192,20187,1,0,0:0:0:0:
256,192,20281,1,0,0:0:0:0:
402,192,20375,1,6,0:0:0:0:
475,192,20375,1,6,0:0:0:0:
182,192,20375,1,2,0:0:0:0:
36,192,20375,1,2,0:0:0:0:
36,192,20562,1,0,0:0:0:0:
329,192,20562,1,0,0:0:0:0:
402,192,20750,1,0,0:0:0:0:
329,192,20843,1,0,0:0:0:0:
256,192,20937,1,0,0:0:0:0:
182,192,21031,1,0,0:0:0:0:
36,192,21125,1,6,0:0:0:0:
109,192,21125,1,6,0:0:0:0:
329,192,21125,1,2,0:0:0:0:
475,192,21125,1,2,0:0:0:0:
36,192,21312,1,0,0:0:0:0:
256,192,21312,1,0,0:0:0:0:
329,192,21406,1,0,0:0:0:0:
402,192,21500,1,0,0:0:0:0:
109,192,21500,1,0,0:0:0:0:
182,192,21593,1,0,0:0:0:0:
256,192,21687,1,0,0:0:0:0:
475,192,21687,1,0,0:0:0:0:
329,192,21781,1,0,0:0:0:0:
402,192,21875,1,6,0:0:0:0:
475,192,21875,1,6,0:0:0:0:
182,192,21875,1,2,0:0:0:0:
36,192,21875,1,2,0:0:0:0:
36,192,22062,1,0,0:0:0:0:
256,192,22062,1,0,0:0:0:0:
109,192,22250,1,8,0:0:0:0:
329,192,22343,1,8,0:0:0:0:
182,192,22437,1,8,0:0:0:0:
402,192,22531,1,8,0:0:0:0:
256,192,22625,1,8,0:0:0:0:
475,192,22718,1,8,0:0:0:0:
329,192,22812,1,8,0:0:0:0:
182,192,22906,1,8,0:0:0:0:
36,192,23000,1,0,0:0:0:0:
109,192,23093,1,0,0:0:0:0:
182,192,23187,1,0,0:0:0:0:
256,192,23281,1,0,0:0:0:0:
36,192,23375,1,6,0:0:0:0:
182,192,23375,1,2,0:0:0:0:
329,192,23375,1,2,0:0:0:0:
475,192,23375,1,6,0:0:0:0:
109,192,23468,1,0,0:0:0:0:
402,192,23562,1,0,0:0:0:0:
256,192,23562,1,0,0:0:0:0:
109,192,23656,1,0,0:0:0:0:
475,192,23750,1,0,0:0:0:0:
402,192,23843,1,0,0:0:0:0:
329,192,23937,1,0,0:0:0:0:
109,192,23937,1,0,0:0:0:0:
256,192,24031,1,0,0:0:0:0:
475,192,24125,1,6,0:0:0:0:
329,192,24125,1,2,0:0:0:0:
182,192,24125,1,2,0:0:0:0:
36,192,24125,1,6,0:0:0:0:
402,192,24218,1,0,0:0:0:0:
109,192,24312,1,0,0:0:0:0:
256,192,24312,1,0,0:0:0:0:
402,192,24406,1,0,0:0:0:0:
36,192,24500,1,0,0:0:0:0:
109,192,24593,1,0,0:0:0:0:
182,192,24687,1,0,0:0:0:0:
402,192,24687,1,0,0:0:0:0:
256,192,24781,1,0,0:0:0:0:
329,192,24875,1,2,0:0:0:0:
475,192,24875,1,6,0:0:0:0:
182,192,24875,1,2,0:0:0:0:
36,192,24875,1,6,0:0:0:0:
402,192,24968,1,0,0:0:0:0:
256,192,25062,1,0,0:0:0:0:
109,192,25062,1,0,0:0:0:0:
329,192,25250,1,8,0:0:0:0:
182,192,25343,1,8,0:0:0:0:
36,192,25437,1,8,0:0:0:0:
256,192,25531,1,8,0:0:0:0:
109,192,25625,1,8,0:0:0:0:
329,192,25718,1,8,0:0:0:0:
182,192,25812,1,8,0:0:0:0:
402,192,25906,1,8,0:0:0:0:
329,192,26000,128,2,26750:0:0:0:0:
109,192,26000,1,8,0:0:0:0:
36,192,26187,1,8,0:0:0:0:
475,192,26187,1,8,0:0:0:0:
402,192,26375,1,0,0:0:0:0:
182,192,26468,1,0,0:0:0:0:
36,192,26562,1,8,0:0:0:0:
475,192,26562,1,8,0:0:0:0:
109,192,26750,1,0,0:0:0:0:
402,192,26750,128,2,27500:0:0:0:0:
256,192,26843,1,0,0:0:0:0:
36,192,26937,1,8,0:0:0:0:
475,192,26937,1,8,0:0:0:0:
329,192,27125,1,0,0:0:0:0:
109,192,27218,1,0,0:0:0:0:
36,192,27312,1,8,0:0:0:0:
256,192,27312,1,8,0:0:0:0:
109,192,27500,1,0,0:0:0:0:
475,192,27500,128,2,29000:0:0:0:0:
256,192,27593,1,0,0:0:0:0:
329,192,27687,1,8,0:0:0:0:
36,192,27687,1,8,0:0:0:0:
109,192,27875,1,0,0:0:0:0:
182,192,28062,1,8,0:0:0:0:
402,192,28062,1,8,0:0:0:0:
36,192,28250,1,0,0:0:0:0:
182,192,28343,1,0,0:0:0:0:
36,192,28437,1,12,0:0:0:0:
402,192,28437,1,4,0:0:0:0:
256,192,28437,1,8,0:0:0:0:
182,192,28531,1,0,0:0:0:0:
329,192,28531,1,0,0:0:0:0:
36,192,28625,1,0,0:0:0:0:
256,192,28625,1,0,0:0:0:0:
329,192,28718,1,0,0:0:0:0:
182,192,28718,1,0,0:0:0:0:
256,192,28812,1,0,0:0:0:0:
36,192,28812,1,0,0:0:0:0:
182,192,28906,1,0,0:0:0:0:
329,192,28906,1,0,0:0:0:0:
36,192,29000,1,0,0:0:0:0:
402,192,29000,1,0,0:0:0:0:
109,192,29000,1,0,0:0:0:0:
182,192,29187,1,8,0:0:0:0:
329,192,29187,1,8,0:0:0:0:
36,192,29375,1,0,0:0:0:0:
182,192,29468,1,0,0:0:0:0:
475,192,29562,1,8,0:0:0:0:
36,192,29562,1,8,0:0:0:0:
329,192,29562,1,8,0:0:0:0:
182,192,29750,1,0,0:0:0:0:
182,192,29937,1,8,0:0:0:0:
402,192,29937,1,8,0:0:0:0:
475,192,30125,1,0,0:0:0:0:
329,192,30218,1,0,0:0:0:0:
475,192,30312,1,8,0:0:0:0:
182,192,30312,1,8,0:0:0:0:
36,192,30312,1,8,0:0:0:0:
109,192,30500,1,0,0:0:0:0:
109,192,30687,1,8,0:0:0:0:
329,192,30687,1,8,0:0:0:0:
402,192,30875,1,0,0:0:0:0:
256,192,30968,1,0,0:0:0:0:
36,192,31062,1,8,0:0:0:0:
402,192,31062,1,8,0:0:0:0:
182,192,31062,1,8,0:0:0:0:
329,192,31156,1,0,0:0:0:0:
475,192,31250,1,0,0:0:0:0:
36,192,31343,1,0,0:0:0:0:
256,192,31343,1,0,0:0:0:0:
109,192,31437,1,0,0:0:0:0:
329,192,31437,1,0,0:0:0:0:
402,192,31531,1,0,0:0:0:0:
182,192,31531,1,0,0:0:0:0:
475,192,31625,1,0,0:0:0:0:
256,192,31625,1,0,0:0:0:0:
402,192,31718,1,0,0:0:0:0:
182,192,31718,1,0,0:0:0:0:
109,192,31812,1,0,0:0:0:0:
329,192,31812,1,0,0:0:0:0:
256,192,31906,1,0,0:0:0:0:
36,192,31906,1,0,0:0:0:0:
109,192,32000,1,0,0:0:0:0:
329,192,32000,1,0,0:0:0:0:
256,192,32187,1,8,0:0:0:0:
402,192,32187,1,8,0:0:0:0:
182,192,32375,1,0,0:0:0:0:
329,192,32468,1,0,0:0:0:0:
36,192,32562,1,8,0:0:0:0:
475,192,32562,1,8,0:0:0:0:
182,192,32562,1,8,0:0:0:0:
402,192,32750,1,0,0:0:0:0:
256,192,32750,1,0,0:0:0:0:
182,192,32937,1,8,0:0:0:0:
475,192,32937,1,8,0:0:0:0:
329,192,33125,1,0,0:0:0:0:
182,192,33218,1,0,0:0:0:0:
329,192,33312,1,8,0:0:0:0:
36,192,33312,1,8,0:0:0:0:
256,192,33500,1,0,0:0:0:0:
402,192,33500,1,0,0:0:0:0:
109,192,33687,1,8,0:0:0:0:
475,192,33687,1,8,0:0:0:0:
182,192,33875,1,0,0:0:0:0:
329,192,33968,1,0,0:0:0:0:
182,192,34062,1,8,0:0:0:0:
36,192,34062,1,8,0:0:0:0:
256,192,34156,1,0,0:0:0:0:
475,192,34250,1,0,0:0:0:0:
329,192,34250,1,0,0:0:0:0:
36,192,34437,1,0,0:0:0:0:
182,192,34437,1,0,0:0:0:0:
109,192,34531,1,0,0:0:0:0:
256,192,34531,1,0,0:0:0:0:
182,192,34625,1,0,0:0:0:0:
329,192,34625,1,0,0:0:0:0:
402,192,34718,1,0,0:0:0:0:
256,192,34718,1,0,0:0:0:0:
329,192,34812,1,0,0:0:0:0:
475,192,34812,1,0,0:0:0:0:
256,192,35000,1,0,0:0:0:0:
36,192,35000,1,0,0:0:0:0:
402,192,35000,1,0,0:0:0:0:
109,192,35093,1,0,0:0:0:0:
182,192,35187,1,0,0:0:0:0:
475,192,35187,1,0,0:0:0:0:
256,192,35281,1,0,0:0:0:0:
402,192,35375,1,0,0:0:0:0:
329,192,35468,1,0,0:0:0:0:
475,192,35562,1,0,0:0:0:0:
256,192,35562,1,0,0:0:0:0:
182,192,35656,1,0,0:0:0:0:
36,192,35750,1,0,0:0:0:0:
109,192,35843,1,0,0:0:0:0:
402,192,35937,1,0,0:0:0:0:
182,192,35937,1,0,0:0:0:0:
256,192,36031,1,0,0:0:0:0:
475,192,36125,1,0,0:0:0:0:
402,192,36218,1,0,0:0:0:0:
109,192,36312,1,0,0:0:0:0:
329,192,36312,1,0,0:0:0:0:
256,192,36406,1,0,0:0:0:0:
36,192,36500,1,0,0:0:0:0:
109,192,36593,1,0,0:0:0:0:
182,192,36687,1,0,0:0:0:0:
475,192,36687,1,0,0:0:0:0:
256,192,36781,1,0,0:0:0:0:
402,192,36875,1,0,0:0:0:0:
329,192,36968,1,0,0:0:0:0:
256,192,37062,1,0,0:0:0:0:
36,192,37062,1,0,0:0:0:0:
182,192,37156,1,0,0:0:0:0:
36,192,37250,1,0,0:0:0:0:
109,192,37343,1,0,0:0:0:0:
182,192,37437,1,0,0:0:0:0:
402,192,37437,1,0,0:0:0:0:
256,192,37531,1,0,0:0:0:0:
475,192,37625,1,0,0:0:0:0:
402,192,37718,1,0,0:0:0:0:
182,192,37812,1,0,0:0:0:0:
329,192,37812,1,0,0:0:0:0:
109,192,37906,1,0,0:0:0:0:
36,192,38000,1,0,0:0:0:0:
402,192,38000,1,0,0:0:0:0:
109,192,38093,1,0,0:0:0:0:
182,192,38187,1,0,0:0:0:0:
329,192,38187,1,0,0:0:0:0:
475,192,38187,1,0,0:0:0:0:
109,192,38281,1,0,0:0:0:0:
402,192,38375,1,0,0:0:0:0:
36,192,38375,1,0,0:0:0:0:
329,192,38468,1,0,0:0:0:0:
109,192,38562,1,0,0:0:0:0:
475,192,38562,1,0,0:0:0:0:
256,192,38562,1,0,0:0:0:0:
329,192,38656,1,0,0:0:0:0:
402,192,38750,1,0,0:0:0:0:
182,192,38750,1,0,0:0:0:0:
256,192,38843,1,0,0:0:0:0:
36,192,38937,1,0,0:0:0:0:
109,192,38937,1,0,0:0:0:0:
329,192,38937,1,0,0:0:0:0:
256,192,39031,1,0,0:0:0:0:
475,192,39125,1,0,0:0:0:0:
182,192,39125,1,0,0:0:0:0:
402,192,39218,1,0,0:0:0:0:
182,192,39312,1,0,0:0:0:0:
329,192,39312,1,0,0:0:0:0:
36,192,39312,1,0,0:0:0:0:
402,192,39406,1,0,0:0:0:0:
109,192,39500,1,0,0:0:0:0:
475,192,39500,1,0,0:0:0:0:
182,192,39593,1,0,0:0:0:0:
256,192,39687,1,0,0:0:0:0:
402,192,39687,1,0,0:0:0:0:
36,192,39687,1,0,0:0:0:0:
182,192,39781,1,0,0:0:0:0:
109,192,39875,1,0,0:0:0:0:
329,192,39875,1,0,0:0:0:0:
402,192,39968,1,0,0:0:0:0:
36,192,40062,1,0,0:0:0:0:
256,192,40062,1,0,0:0:0:0:
475,192,40062,1,0,0:0:0:0:
402,192,40156,1,0,0:0:0:0:
36,192,40250,1,0,0:0:0:0:
329,192,40250,1,0,0:0:0:0:
402,192,40343,1,0,0:0:0:0:
109,192,40343,1,0,0:0:0:0:
182,192,40437,1,0,0:0:0:0:
475,192,40437,1,0,0:0:0:0:
36,192,40531,1,0,0:0:0:0:
256,192,40531,1,0,0:0:0:0:
109,192,40625,1,0,0:0:0:0:
329,192,40625,1,0,0:0:0:0:
182,192,40718,1,0,0:0:0:0:
402,192,40718,1,0,0:0:0:0:
256,192,40812,1,0,0:0:0:0:
475,192,40812,1,0,0:0:0:0:
402,192,40906,1,0,0:0:0:0:
109,192,40906,1,0,0:0:0:0:
36,192,41000,1,4,0:0:0:0:
475,192,41000,1,0,0:0:0:0:
256,192,41000,1,4,0:0:0:0:
402,192,41187,1,0,0:0:0:0:
36,192,41281,1,0,0:0:0:0:
182,192,41281,1,0,0:0:0:0:
256,192,41281,1,0,0:0:0:0:
109,192,41562,1,0,0:0:0:0:
475,192,41562,128,2,42500:0:0:0:0:
109,192,41937,1,0,0:0:0:0:
402,192,41937,1,0,0:0:0:0:
256,192,42031,1,0,0:0:0:0:
109,192,42125,1,0,0:0:0:0:
402,192,42125,1,0,0:0:0:0:
36,192,42312,1,0,0:0:0:0:
329,192,42312,1,0,0:0:0:0:
182,192,42406,1,0,0:0:0:0:
36,192,42500,1,0,0:0:0:0:
329,192,42500,1,0,0:0:0:0:
109,192,42593,1,0,0:0:0:0:
182,192,42687,1,0,0:0:0:0:
402,192,42687,1,0,0:0:0:0:
256,192,42781,1,0,0:0:0:0:
109,192,42875,1,0,0:0:0:0:
182,192,42968,1,0,0:0:0:0:
256,192,43062,1,0,0:0:0:0:
475,192,43062,1,0,0:0:0:0:
329,192,43156,1,0,0:0:0:0:
182,192,43250,1,0,0:0:0:0:
256,192,43343,1,0,0:0:0:0:
329,192,43437,1,0,0:0:0:0:
36,192,43437,1,0,0:0:0:0:
402,192,43531,1,0,0:0:0:0:
256,192,43625,1,0,0:0:0:0:
329,192,43718,1,0,0:0:0:0:
402,192,43812,1,0,0:0:0:0:
109,192,43812,1,0,0:0:0:0:
475,192,43906,1,0,0:0:0:0:
36,192,44000,5,4,0:0:0:0:
182,192,44000,5,0,0:0:0:0:
256,192,44000,5,4,0:0:0:0:
109,192,44187,1,0,0:0:0:0:
475,192,44281,1,0,0:0:0:0:
256,192,44281,1,0,0:0:0:0:
329,192,44281,1,0,0:0:0:0:
36,192,44562,128,2,45500:0:0:0:0:
402,192,44562,1,0,0:0:0:0:
402,192,44937,1,0,0:0:0:0:
109,192,44937,1,0,0:0:0:0:
256,192,45031,1,0,0:0:0:0:
402,192,45125,1,0,0:0:0:0:
109,192,45125,1,0,0:0:0:0:
475,192,45312,1,0,0:0:0:0:
182,192,45312,1,0,0:0:0:0:
329,192,45406,1,0,0:0:0:0:
182,192,45500,1,0,0:0:0:0:
475,192,45500,1,0,0:0:0:0:
402,192,45593,1,0,0:0:0:0:
329,192,45687,1,0,0:0:0:0:
109,192,45687,1,0,0:0:0:0:
256,192,45781,1,0,0:0:0:0:
402,192,45875,1,0,0:0:0:0:
329,192,45968,1,0,0:0:0:0:
256,192,46062,1,0,0:0:0:0:
36,192,46062,1,0,0:0:0:0:
182,192,46156,1,0,0:0:0:0:
329,192,46250,1,0,0:0:0:0:
256,192,46343,1,0,0:0:0:0:
182,192,46437,1,0,0:0:0:0:
475,192,46437,1,0,0:0:0:0:
109,192,46531,1,0,0:0:0:0:
256,192,46625,1,0,0:0:0:0:
182,192,46718,1,0,0:0:0:0:
109,192,46812,1,0,0:0:0:0:
402,192,46812,1,0,0:0:0:0:
36,192,46906,1,0,0:0:0:0:
475,192,47000,1,4,0:0:0:0:
329,192,47000,1,0,0:0:0:0:
256,192,47000,1,4,0:0:0:0:
182,192,47093,1,0,0:0:0:0:
109,192,47187,1,8,0:0:0:0:
402,192,47187,1,8,0:0:0:0:
256,192,47281,1,0,0:0:0:0:
182,192,47375,1,0,0:0:0:0:
329,192,47468,1,0,0:0:0:0:
475,192,47562,1,8,0:0:0:0:
256,192,47562,1,8,0:0:0:0:
402,192,47656,1,0,0:0:0:0:
182,192,47750,1,0,0:0:0:0:
329,192,47750,1,0,0:0:0:0:
36,192,47843,1,0,0:0:0:0:
329,192,47937,1,8,0:0:0:0:
182,192,47937,1,8,0:0:0:0:
475,192,47937,1,0,0:0:0:0:
109,192,48031,1,0,0:0:0:0:
256,192,48125,1,0,0:0:0:0:
402,192,48125,1,0,0:0:0:0:
182,192,48218,1,0,0:0:0:0:
36,192,48312,1,0,0:0:0:0:
329,192,48312,1,8,0:0:0:0:
475,192,48312,1,8,0:0:0:0:
256,192,48406,1,0,0:0:0:0:
109,192,48500,1,0,0:0:0:0:
402,192,48500,1,0,0:0:0:0:
329,192,48593,1,0,0:0:0:0:
475,192,48687,1,0,0:0:0:0:
182,192,48687,1,8,0:0:0:0:
36,192,48687,1,8,0:0:0:0:
402,192,48781,1,0,0:0:0:0:
329,192,48875,1,0,0:0:0:0:
36,192,48968,1,0,0:0:0:0:
329,192,49062,1,8,0:0:0:0:
182,192,49062,1,8,0:0:0:0:
402,192,49156,1,0,0:0:0:0:
256,192,49250,1,0,0:0:0:0:
109,192,49250,1,0,0:0:0:0:
475,192,49343,1,0,0:0:0:0:
182,192,49437,1,8,0:0:0:0:
329,192,49437,1,0,0:0:0:0:
36,192,49437,1,8,0:0:0:0:
402,192,49531,1,0,0:0:0:0:
109,192,49625,1,0,0:0:0:0:
256,192,49625,1,0,0:0:0:0:
475,192,49718,1,0,0:0:0:0:
182,192,49812,1,8,0:0:0:0:
36,192,49812,1,8,0:0:0:0:
329,192,49812,1,0,0:0:0:0:
109,192,49906,1,0,0:0:0:0:
402,192,49906,1,0,0:0:0:0:
36,192,50000,1,4,0:0:0:0:
256,192,50000,1,0,0:0:0:0:
475,192,50000,1,4,0:0:0:0:
329,192,50093,1,0,0:0:0:0:
182,192,50187,1,8,0:0:0:0:
402,192,50187,1,8,0:0:0:0:
109,192,50281,1,0,0:0:0:0:
256,192,50375,1,0,0:0:0:0:
182,192,50468,1,0,0:0:0:0:
402,192,50468,1,0,0:0:0:0:
36,192,50562,1,8,0:0:0:0:
256,192,50562,1,8,0:0:0:0:
475,192,50562,1,0,0:0:0:0:
329,192,50656,1,0,0:0:0:0:
182,192,50750,1,0,0:0:0:0:
36,192,50843,1,0,0:0:0:0:
109,192,50937,1,8,0:0:0:0:
475,192,50937,1,8,0:0:0:0:
256,192,51031,1,0,0:0:0:0:
402,192,51125,1,0,0:0:0:0:
329,192,51218,1,0,0:0:0:0:
475,192,51312,1,8,0:0:0:0:
182,192,51312,1,8,0:0:0:0:
36,192,51406,1,0,0:0:0:0:
402,192,51500,1,0,0:0:0:0:
256,192,51500,1,0,0:0:0:0:
109,192,51500,1,4,0:0:0:0:
36,192,51687,1,0,0:0:0:0:
256,192,51687,1,0,0:0:0:0:
475,192,51687,1,0,0:0:0:0:
182,192,51875,1,0,0:0:0:0:
329,192,51875,1,0,0:0:0:0:
475,192,51968,1,0,0:0:0:0:
109,192,52062,1,0,0:0:0:0:
256,192,52062,1,0,0:0:0:0:
402,192,52156,1,0,0:0:0:0:
182,192,52250,1,0,0:0:0:0:
36,192,52250,1,0,0:0:0:0:
329,192,52343,1,0,0:0:0:0:
109,192,52437,1,0,0:0:0:0:
475,192,52437,1,0,0:0:0:0:
402,192,52531,1,0,0:0:0:0:
256,192,52531,1,0,0:0:0:0:
475,192,52625,1,0,0:0:0:0:
109,192,52625,1,0,0:0:0:0:
182,192,52718,1,0,0:0:0:0:
329,192,52718,1,0,0:0:0:0:
36,192,52812,1,0,0:0:0:0:
475,192,52812,1,0,0:0:0:0:
182,192,52906,1,0,0:0:0:0:
402,192,52906,1,0,0:0:0:0:
36,192,53000,1,4,0:0:0:0:
475,192,53000,1,4,0:0:0:0:
256,192,53000,1,0,0:0:0:0:
109,192,53093,1,0,0:0:0:0:
182,192,53187,1,0,0:0:0:0:
256,192,53281,1,0,0:0:0:0:
36,192,53375,1,8,0:0:0:0:
182,192,53375,1,8,0:0:0:0:
475,192,53375,1,8,0:0:0:0:
402,192,53468,1,0,0:0:0:0:
329,192,53562,1,0,0:0:0:0:
256,192,53656,1,0,0:0:0:0:
109,192,53750,1,0,0:0:0:0:
329,192,53750,1,0,0:0:0:0:
182,192,53843,1,0,0:0:0:0:
256,192,53937,1,0,0:0:0:0:
329,192,54031,1,0,0:0:0:0:
36,192,54125,1,8,0:0:0:0:
256,192,54125,1,8,0:0:0:0:
475,192,54125,1,8,0:0:0:0:
402,192,54218,1,0,0:0:0:0:
329,192,54312,1,0,0:0:0:0:
256,192,54406,1,0,0:0:0:0:
36,192,54500,1,0,0:0:0:0:
329,192,54500,1,0,0:0:0:0:
109,192,54593,1,0,0:0:0:0:
182,192,54687,1,0,0:0:0:0:
256,192,54781,1,0,0:0:0:0:
475,192,54875,1,8,0:0:0:0:
329,192,54875,1,8,0:0:0:0:
256,192,54968,1,0,0:0:0:0:
182,192,55062,1,0,0:0:0:0:
109,192,55156,1,0,0:0:0:0:
36,192,55250,1,0,0:0:0:0:
329,192,55250,1,0,0:0:0:0:
402,192,55343,1,0,0:0:0:0:
182,192,55343,1,0,0:0:0:0:
36,192,55437,1,0,0:0:0:0:
475,192,55437,1,0,0:0:0:0:
182,192,55531,1,0,0:0:0:0:
402,192,55531,1,0,0:0:0:0:
36,192,55625,1,0,0:0:0:0:
329,192,55625,1,0,0:0:0:0:
182,192,55718,1,0,0:0:0:0:
402,192,55718,1,0,0:0:0:0:
36,192,55812,1,0,0:0:0:0:
475,192,55812,1,0,0:0:0:0:
402,192,55906,1,0,0:0:0:0:
182,192,55906,1,0,0:0:0:0:
475,192,56000,1,4,0:0:0:0:
36,192,56000,1,4,0:0:0:0:
256,192,56000,1,0,0:0:0:0:
402,192,56093,1,0,0:0:0:0:
329,192,56187,1,0,0:0:0:0:
256,192,56281,1,0,0:0:0:0:
36,192,56375,1,8,0:0:0:0:
329,192,56375,1,8,0:0:0:0:
475,192,56375,1,8,0:0:0:0:
109,192,56468,1,0,0:0:0:0:
182,192,56562,1,0,0:0:0:0:
256,192,56656,1,0,0:0:0:0:
182,192,56750,1,0,0:0:0:0:
402,192,56750,1,0,0:0:0:0:
329,192,56843,1,0,0:0:0:0:
256,192,56937,1,0,0:0:0:0:
182,192,57031,1,0,0:0:0:0:
36,192,57125,1,8,0:0:0:0:
256,192,57125,1,8,0:0:0:0:
475,192,57125,1,8,0:0:0:0:
109,192,57218,1,0,0:0:0:0:
182,192,57312,1,0,0:0:0:0:
256,192,57406,1,0,0:0:0:0:
475,192,57500,1,0,0:0:0:0:
182,192,57500,1,0,0:0:0:0:
402,192,57593,1,0,0:0:0:0:
329,192,57687,1,0,0:0:0:0:
256,192,57781,1,0,0:0:0:0:
36,192,57875,1,8,0:0:0:0:
182,192,57875,1,8,0:0:0:0:
256,192,57968,1,0,0:0:0:0:
329,192,58062,1,0,0:0:0:0:
402,192,58156,1,0,0:0:0:0:
475,192,58250,1,0,0:0:0:0:
256,192,58250,1,0,0:0:0:0:
182,192,58343,1,0,0:0:0:0:
402,192,58343,1,0,0:0:0:0:
329,192,58437,1,0,0:0:0:0:
109,192,58437,1,0,0:0:0:0:
402,192,58531,1,0,0:0:0:0:
182,192,58531,1,0,0:0:0:0:
109,192,58625,1,0,0:0:0:0:
329,192,58625,1,0,0:0:0:0:
402,192,58718,1,0,0:0:0:0:
182,192,58718,1,0,0:0:0:0:
109,192,58812,1,0,0:0:0:0:
329,192,58812,1,0,0:0:0:0:
256,192,58906,1,0,0:0:0:0:
36,192,58906,1,0,0:0:0:0:
182,192,59000,1,0,0:0:0:0:
475,192,59000,1,4,0:0:0:0:
329,192,59093,1,0,0:0:0:0:
109,192,59187,1,8,0:0:0:0:
475,192,59187,1,8,0:0:0:0:
256,192,59281,1,0,0:0:0:0:
402,192,59375,1,0,0:0:0:0:
36,192,59468,1,0,0:0:0:0:
182,192,59562,1,8,0:0:0:0:
329,192,59562,1,8,0:0:0:0:
109,192,59656,1,0,0:0:0:0:
256,192,59750,1,0,0:0:0:0:
402,192,59843,1,0,0:0:0:0:
329,192,59937,1,8,0:0:0:0:
182,192,59937,1,8,0:0:0:0:
109,192,60031,1,0,0:0:0:0:
256,192,60125,1,0,0:0:0:0:
402,192,60218,1,0,0:0:0:0:
475,192,60312,1,8,0:0:0:0:
36,192,60312,1,8,0:0:0:0:
329,192,60406,1,0,0:0:0:0:
256,192,60500,1,0,0:0:0:0:
109,192,60593,1,0,0:0:0:0:
36,192,60687,1,8,0:0:0:0:
256,192,60687,1,8,0:0:0:0:
402,192,60781,1,0,0:0:0:0:
475,192,60875,1,0,0:0:0:0:
329,192,60968,1,0,0:0:0:0:
36,192,61062,1,8,0:0:0:0:
182,192,61062,1,8,0:0:0:0:
256,192,61156,1,0,0:0:0:0:
475,192,61250,1,0,0:0:0:0:
329,192,61343,1,0,0:0:0:0:
182,192,61437,1,8,0:0:0:0:
402,192,61437,1,8,0:0:0:0:
109,192,61531,1,0,0:0:0:0:
256,192,61625,1,0,0:0:0:0:
475,192,61718,1,0,0:0:0:0:
329,192,61812,1,8,0:0:0:0:
182,192,61812,1,8,0:0:0:0:
109,192,61906,1,0,0:0:0:0:
402,192,62000,1,8,0:0:0:0:
36,192,62000,1,8,0:0:0:0:
182,192,62093,1,0,0:0:0:0:
329,192,62187,1,0,0:0:0:0:
475,192,62187,1,0,0:0:0:0:
36,192,62187,1,0,0:0:0:0:
182,192,62281,1,0,0:0:0:0:
36,192,62375,1,8,0:0:0:0:
402,192,62375,1,8,0:0:0:0:
256,192,62468,1,0,0:0:0:0:
109,192,62562,1,0,0:0:0:0:
402,192,62562,1,0,0:0:0:0:
475,192,62562,1,0,0:0:0:0:
256,192,62656,1,0,0:0:0:0:
182,192,62750,1,8,0:0:0:0:
402,192,62750,1,8,0:0:0:0:
329,192,62843,1,0,0:0:0:0:
475,192,62937,1,0,0:0:0:0:
182,192,62937,1,0,0:0:0:0:
36,192,62937,1,0,0:0:0:0:
329,192,63031,1,0,0:0:0:0:
402,192,63125,1,8,0:0:0:0:
109,192,63125,1,8,0:0:0:0:
329,192,63218,1,0,0:0:0:0:
475,192,63312,1,0,0:0:0:0:
182,192,63312,1,0,0:0:0:0:
36,192,63312,1,0,0:0:0:0:
329,192,63406,1,0,0:0:0:0:
475,192,63500,1,8,0:0:0:0:
109,192,63500,1,8,0:0:0:0:
256,192,63593,1,0,0:0:0:0:
402,192,63687,1,0,0:0:0:0:
329,192,63687,1,0,0:0:0:0:
109,192,63687,1,0,0:0:0:0:
256,192,63781,1,0,0:0:0:0:
475,192,63875,5,8,0:0:0:0:
109,192,63875,1,8,0:0:0:0:
329,192,63968,1,0,0:0:0:0:
475,192,64062,1,0,0:0:0:0:
182,192,64062,1,0,0:0:0:0:
36,192,64062,1,0,0:0:0:0:
329,192,64156,1,0,0:0:0:0:
256,192,64250,1,8,0:0:0:0:
36,192,64250,1,0,0:0:0:0:
329,192,64343,1,8,0:0:0:0:
109,192,64343,1,0,0:0:0:0:
182,192,64437,1,0,0:0:0:0:
402,192,64437,1,8,0:0:0:0:
256,192,64531,1,0,0:0:0:0:
475,192,64531,1,8,0:0:0:0:
329,192,64625,1,8,0:0:0:0:
36,192,64625,1,0,0:0:0:0:
402,192,64718,1,8,0:0:0:0:
109,192,64718,1,0,0:0:0:0:
475,192,64812,1,8,0:0:0:0:
182,192,64812,1,0,0:0:0:0:
109,192,64906,1,0,0:0:0:0:
402,192,64906,1,8,0:0:0:0:
256,192,65000,1,0,0:0:0:0:
36,192,65000,1,0,0:0:0:0:
475,192,65000,128,2,66500:0:0:0:0:
329,192,65187,1,8,0:0:0:0:
182,192,65187,1,8,0:0:0:0:
36,192,65375,1,0,0:0:0:0:
402,192,65562,1,8,0:0:0:0:
256,192,65562,1,8,0:0:0:0:
36,192,65750,1,0,0:0:0:0:
329,192,65937,1,8,0:0:0:0:
182,192,65937,1,8,0:0:0:0:
109,192,66125,1,0,0:0:0:0:
256,192,66312,1,8,0:0:0:0:
36,192,66312,1,8,0:0:0:0:
329,192,66500,128,2,66875:0:0:0:0:
36,192,66500,1,0,0:0:0:0:
182,192,66500,1,0,0:0:0:0:
402,192,66687,1,8,0:0:0:0:
109,192,66687,1,8,0:0:0:0:
256,192,66875,128,2,67250:0:0:0:0:
36,192,66875,1,0,0:0:0:0:
475,192,67062,1,8,0:0:0:0:
109,192,67062,1,8,0:0:0:0:
182,192,67250,128,2,67625:0:0:0:0:
402,192,67250,1,0,0:0:0:0:
329,192,67437,1,8,0:0:0:0:
36,192,67437,1,8,0:0:0:0:
109,192,67625,128,2,68000:0:0:0:0:
402,192,67625,1,0,0:0:0:0:
475,192,67812,1,8,0:0:0:0:
256,192,67812,1,8,0:0:0:0:
36,192,68000,128,2,69500:0:0:0:0:
475,192,68000,1,0,0:0:0:0:
329,192,68000,1,0,0:0:0:0:
402,192,68187,1,8,0:0:0:0:
182,192,68187,1,8,0:0:0:0:
475,192,68375,1,0,0:0:0:0:
329,192,68562,1,8,0:0:0:0:
109,192,68562,1,8,0:0:0:0:
475,192,68750,1,0,0:0:0:0:
402,192,68937,1,8,0:0:0:0:
256,192,68937,1,8,0:0:0:0:
475,192,69125,1,0,0:0:0:0:
329,192,69312,1,8,0:0:0:0:
182,192,69312,1,8,0:0:0:0:
109,192,69500,128,2,69875:0:0:0:0:
475,192,69500,1,0,0:0:0:0:
329,192,69500,1,0,0:0:0:0:
256,192,69687,1,8,0:0:0:0:
402,192,69687,1,8,0:0:0:0:
182,192,69875,128,2,70250:0:0:0:0:
475,192,69875,1,0,0:0:0:0:
329,192,70062,1,8,0:0:0:0:
36,192,70062,1,8,0:0:0:0:
256,192,70250,128,2,70625:0:0:0:0:
475,192,70250,1,0,0:0:0:0:
402,192,70437,1,8,0:0:0:0:
36,192,70437,1,0,0:0:0:0:
182,192,70531,1,0,0:0:0:0:
329,192,70625,128,2,71000:0:0:0:0:
36,192,70625,1,0,0:0:0:0:
182,192,70718,1,0,0:0:0:0:
36,192,70812,1,0,0:0:0:0:
182,192,70906,1,8,0:0:0:0:
475,192,71000,128,2,71375:0:0:0:0:
256,192,71000,1,0,0:0:0:0:
36,192,71000,128,2,71375:0:0:0:0:
182,192,71375,1,0,0:0:0:0:
329,192,71375,1,0,0:0:0:0:
109,192,71468,1,0,0:0:0:0:
402,192,71468,1,0,0:0:0:0:
182,192,71562,128,2,71937:0:0:0:0:
329,192,71562,128,2,71937:0:0:0:0:
475,192,71937,1,0,0:0:0:0:
36,192,71937,1,0,0:0:0:0:
402,192,72031,1,0,0:0:0:0:
109,192,72031,1,0,0:0:0:0:
475,192,72125,128,2,73250:0:0:0:0:
36,192,72125,128,2,73250:0:0:0:0:
256,192,72125,1,0,0:0:0:0:
256,192,72312,1,0,0:0:0:0:
329,192,72500,1,0,0:0:0:0:
182,192,72593,1,0,0:0:0:0:
329,192,72687,1,0,0:0:0:0:
182,192,72781,1,0,0:0:0:0:
329,192,72875,1,0,0:0:0:0:
182,192,72968,1,0,0:0:0:0:
329,192,73062,1,0,0:0:0:0:
182,192,73156,1,0,0:0:0:0:
256,192,73250,128,2,73625:0:0:0:0:
109,192,73437,1,8,0:0:0:0:
402,192,73437,1,8,0:0:0:0:
329,192,73625,128,2,74000:0:0:0:0:
109,192,73812,1,8,0:0:0:0:
402,192,73812,1,8,0:0:0:0:
475,192,74000,128,2,75500:0:0:0:0:
36,192,74000,1,0,0:0:0:0:
109,192,74187,1,8,0:0:0:0:
256,192,74187,1,8,0:0:0:0:
36,192,74375,1,0,0:0:0:0:
182,192,74562,1,8,0:0:0:0:
329,192,74562,1,8,0:0:0:0:
36,192,74750,1,0,0:0:0:0:
109,192,74937,1,8,0:0:0:0:
256,192,74937,1,8,0:0:0:0:
36,192,75125,1,0,0:0:0:0:
182,192,75312,1,8,0:0:0:0:
329,192,75312,1,8,0:0:0:0:
402,192,75500,128,2,77000:0:0:0:0:
36,192,75500,1,0,0:0:0:0:
109,192,75687,1,8,0:0:0:0:
256,192,75687,1,8,0:0:0:0:
36,192,75875,1,0,0:0:0:0:
182,192,76062,1,8,0:0:0:0:
475,192,76062,1,8,0:0:0:0:
36,192,76156,1,0,0:0:0:0:
256,192,76250,1,0,0:0:0:0:
109,192,76343,1,0,0:0:0:0:
329,192,76437,1,0,0:0:0:0:
475,192,76437,1,0,0:0:0:0:
182,192,76531,1,0,0:0:0:0:
256,192,76625,1,0,0:0:0:0:
109,192,76718,1,0,0:0:0:0:
329,192,76812,1,0,0:0:0:0:
182,192,76906,1,0,0:0:0:0:
475,192,77000,128,2,78500:0:0:0:0:
36,192,77000,128,2,77187:0:0:0:0:
256,192,77000,1,0,0:0:0:0:
329,192,77187,1,0,0:0:0:0:
329,192,77375,128,2,77562:0:0:0:0:
109,192,77375,1,0,0:0:0:0:
182,192,77562,1,0,0:0:0:0:
182,192,77750,128,2,77937:0:0:0:0:
36,192,77750,1,0,0:0:0:0:
329,192,77937,1,0,0:0:0:0:
402,192,78125,128,2,78312:0:0:0:0:
109,192,78125,1,0,0:0:0:0:
256,192,78312,1,0,0:0:0:0:
256,192,78500,128,2,78687:0:0:0:0:
36,192,78500,1,0,0:0:0:0:
475,192,78687,128,2,78875:0:0:0:0:
109,192,78687,1,0,0:0:0:0:
109,192,78875,128,2,79062:0:0:0:0:
329,192,78875,1,0,0:0:0:0:
402,192,79062,1,0,0:0:0:0:
402,192,79250,128,2,79437:0:0:0:0:
182,192,79250,1,0,0:0:0:0:
36,192,79437,1,0,0:0:0:0:
109,192,79625,128,2,79812:0:0:0:0:
329,192,79625,1,0,0:0:0:0:
256,192,79812,1,0,0:0:0:0:
36,192,80000,128,2,80187:0:0:0:0:
329,192,80000,1,0,0:0:0:0:
182,192,80187,128,2,80375:0:0:0:0:
329,192,80375,128,2,80562:0:0:0:0:
475,192,80375,1,0,0:0:0:0:
109,192,80375,1,0,0:0:0:0:
182,192,80562,128,2,80750:0:0:0:0:
36,192,80750,128,2,80937:0:0:0:0:
256,192,80750,1,0,0:0:0:0:
182,192,80937,128,2,81125:0:0:0:0:
329,192,81125,128,2,81312:0:0:0:0:
475,192,81125,1,0,0:0:0:0:
109,192,81125,1,0,0:0:0:0:
256,192,81312,1,0,0:0:0:0:
36,192,81500,1,2,0:0:0:0:
475,192,81500,1,2,0:0:0:0:
402,192,81593,1,0,0:0:0:0:
109,192,81687,1,0,0:0:0:0:
329,192,81781,1,0,0:0:0:0:
182,192,81875,1,0,0:0:0:0:
402,192,81968,1,0,0:0:0:0:
109,192,82062,1,0,0:0:0:0:
475,192,82156,1,0,0:0:0:0:
36,192,82250,1,0,0:0:0:0:
402,192,82343,1,0,0:0:0:0:
109,192,82437,1,0,0:0:0:0:
329,192,82531,1,0,0:0:0:0:
182,192,82625,1,0,0:0:0:0:
475,192,82718,1,0,0:0:0:0:
109,192,82812,1,0,0:0:0:0:
329,192,82906,1,0,0:0:0:0:
36,192,83000,1,8,0:0:0:0:
475,192,83000,1,8,0:0:0:0:
256,192,83093,1,0,0:0:0:0:
109,192,83187,1,0,0:0:0:0:
329,192,83281,1,0,0:0:0:0:
182,192,83375,1,0,0:0:0:0:
402,192,83468,1,0,0:0:0:0:
256,192,83562,1,0,0:0:0:0:
475,192,83656,1,0,0:0:0:0:
36,192,83750,1,8,0:0:0:0:
329,192,83750,1,8,0:0:0:0:
256,192,83843,1,0,0:0:0:0:
109,192,83937,1,0,0:0:0:0:
256,192,84031,1,0,0:0:0:0:
402,192,84125,1,0,0:0:0:0:
256,192,84218,1,0,0:0:0:0:
109,192,84312,1,0,0:0:0:0:
256,192,84406,1,0,0:0:0:0:
36,192,84500,1,8,0:0:0:0:
475,192,84500,1,8,0:0:0:0:
182,192,84593,1,0,0:0:0:0:
402,192,84687,1,0,0:0:0:0:
329,192,84687,1,0,0:0:0:0:
109,192,84781,1,0,0:0:0:0:
256,192,84875,1,0,0:0:0:0:
402,192,84968,1,0,0:0:0:0:
182,192,85062,1,0,0:0:0:0:
109,192,85062,1,0,0:0:0:0:
329,192,85156,1,0,0:0:0:0:
182,192,85250,1,0,0:0:0:0:
36,192,85343,1,0,0:0:0:0:
402,192,85437,1,0,0:0:0:0:
475,192,85437,1,0,0:0:0:0:
182,192,85625,1,0,0:0:0:0:
329,192,85718,1,0,0:0:0:0:
109,192,85812,1,0,0:0:0:0:
36,192,85812,1,0,0:0:0:0:
329,192,86000,1,0,0:0:0:0:
182,192,86093,1,0,0:0:0:0:
475,192,86187,1,0,0:0:0:0:
402,192,86187,1,0,0:0:0:0:
256,192,86375,1,0,0:0:0:0:
182,192,86562,1,0,0:0:0:0:
109,192,86562,1,0,0:0:0:0:
329,192,86656,1,0,0:0:0:0:
182,192,86750,1,0,0:0:0:0:
36,192,86843,1,0,0:0:0:0:
475,192,86937,1,0,0:0:0:0:
402,192,86937,1,0,0:0:0:0:
256,192,87125,1,0,0:0:0:0:
402,192,87312,1,0,0:0:0:0:
109,192,87312,1,0,0:0:0:0:
256,192,87406,1,0,0:0:0:0:
36,192,87500,1,2,0:0:0:0:
182,192,87500,1,2,0:0:0:0:
402,192,87500,1,0,0:0:0:0:
329,192,87593,1,0,0:0:0:0:
109,192,87687,1,0,0:0:0:0:
475,192,87687,1,0,0:0:0:0:
256,192,87781,1,0,0:0:0:0:
36,192,87875,1,2,0:0:0:0:
182,192,87875,1,2,0:0:0:0:
402,192,87875,1,0,0:0:0:0:
329,192,87968,1,0,0:0:0:0:
109,192,88062,1,0,0:0:0:0:
475,192,88062,1,0,0:0:0:0:
256,192,88156,1,0,0:0:0:0:
36,192,88250,1,2,0:0:0:0:
182,192,88250,1,2,0:0:0:0:
402,192,88250,1,0,0:0:0:0:
256,192,88343,1,0,0:0:0:0:
329,192,88437,1,0,0:0:0:0:
475,192,88437,1,0,0:0:0:0:
256,192,88531,1,0,0:0:0:0:
36,192,88625,1,2,0:0:0:0:
182,192,88625,1,2,0:0:0:0:
402,192,88625,1,0,0:0:0:0:
256,192,88718,1,0,0:0:0:0:
329,192,88812,1,0,0:0:0:0:
475,192,88812,1,0,0:0:0:0:
109,192,88812,1,0,0:0:0:0:
36,192,89000,1,2,0:0:0:0:
402,192,89000,1,2,0:0:0:0:
256,192,89000,1,4,0:0:0:0:
329,192,89093,1,0,0:0:0:0:
109,192,89187,1,0,0:0:0:0:
256,192,89281,1,0,0:0:0:0:
36,192,89375,1,0,0:0:0:0:
402,192,89468,1,0,0:0:0:0:
182,192,89562,1,0,0:0:0:0:
329,192,89656,1,0,0:0:0:0:
36,192,89750,1,0,0:0:0:0:
475,192,89750,1,0,0:0:0:0:
256,192,89843,1,0,0:0:0:0:
109,192,89937,1,0,0:0:0:0:
329,192,90031,1,0,0:0:0:0:
182,192,90125,1,0,0:0:0:0:
402,192,90218,1,0,0:0:0:0:
256,192,90312,1,0,0:0:0:0:
475,192,90406,1,0,0:0:0:0:
36,192,90500,1,8,0:0:0:0:
329,192,90500,1,8,0:0:0:0:
402,192,90593,1,0,0:0:0:0:
329,192,90687,1,0,0:0:0:0:
109,192,90687,1,0,0:0:0:0:
256,192,90781,1,0,0:0:0:0:
182,192,90875,1,0,0:0:0:0:
36,192,90875,1,0,0:0:0:0:
256,192,90968,1,0,0:0:0:0:
329,192,91062,1,0,0:0:0:0:
109,192,91062,1,0,0:0:0:0:
402,192,91156,1,0,0:0:0:0:
475,192,91250,1,0,0:0:0:0:
182,192,91250,1,0,0:0:0:0:
402,192,91343,1,0,0:0:0:0:
329,192,91437,1,0,0:0:0:0:
109,192,91437,1,0,0:0:0:0:
256,192,91531,1,0,0:0:0:0:
182,192,91625,1,0,0:0:0:0:
36,192,91625,1,0,0:0:0:0:
256,192,91718,1,0,0:0:0:0:
329,192,91812,1,0,0:0:0:0:
109,192,91812,1,0,0:0:0:0:
402,192,91906,1,0,0:0:0:0:
475,192,92000,1,8,0:0:0:0:
36,192,92000,1,8,0:0:0:0:
256,192,92000,1,8,0:0:0:0:
182,192,92093,1,0,0:0:0:0:
109,192,92187,1,0,0:0:0:0:
182,192,92281,1,0,0:0:0:0:
256,192,92375,1,0,0:0:0:0:
475,192,92375,1,0,0:0:0:0:
329,192,92468,1,0,0:0:0:0:
402,192,92562,1,0,0:0:0:0:
329,192,92656,1,0,0:0:0:0:
256,192,92750,1,0,0:0:0:0:
36,192,92750,1,0,0:0:0:0:
109,192,92843,1,0,0:0:0:0:
182,192,92937,1,0,0:0:0:0:
256,192,93031,1,0,0:0:0:0:
329,192,93125,1,0,0:0:0:0:
36,192,93125,1,0,0:0:0:0:
402,192,93218,1,0,0:0:0:0:
109,192,93218,1,0,0:0:0:0:
475,192,93312,1,0,0:0:0:0:
182,192,93312,1,0,0:0:0:0:
256,192,93406,1,0,0:0:0:0:
329,192,93500,1,8,0:0:0:0:
36,192,93500,1,8,0:0:0:0:
256,192,93593,1,0,0:0:0:0:
182,192,93687,1,0,0:0:0:0:
109,192,93781,1,0,0:0:0:0:
36,192,93875,1,0,0:0:0:0:
475,192,93875,1,0,0:0:0:0:
256,192,93875,1,0,0:0:0:0:
402,192,93968,1,0,0:0:0:0:
329,192,94062,1,0,0:0:0:0:
256,192,94156,1,0,0:0:0:0:
182,192,94250,1,0,0:0:0:0:
36,192,94250,1,0,0:0:0:0:
256,192,94343,1,0,0:0:0:0:
329,192,94437,1,0,0:0:0:0:
402,192,94531,1,0,0:0:0:0:
475,192,94625,1,8,0:0:0:0:
36,192,94625,1,8,0:0:0:0:
256,192,94625,1,8,0:0:0:0:
109,192,94718,1,0,0:0:0:0:
182,192,94812,1,0,0:0:0:0:
475,192,94812,1,8,0:0:0:0:
256,192,94906,1,0,0:0:0:0:
36,192,95000,1,8,0:0:0:0:
182,192,95000,1,2,0:0:0:0:
329,192,95000,1,2,0:0:0:0:
475,192,95000,1,8,0:0:0:0:
109,192,95093,1,0,0:0:0:0:
182,192,95187,1,0,0:0:0:0:
256,192,95281,1,0,0:0:0:0:
475,192,95375,1,8,0:0:0:0:
329,192,95375,1,2,0:0:0:0:
182,192,95375,1,2,0:0:0:0:
36,192,95375,1,8,0:0:0:0:
402,192,95468,1,0,0:0:0:0:
329,192,95562,1,0,0:0:0:0:
256,192,95656,1,0,0:0:0:0:
36,192,95750,1,8,0:0:0:0:
182,192,95750,1,2,0:0:0:0:
329,192,95750,1,2,0:0:0:0:
475,192,95750,1,8,0:0:0:0:
109,192,95843,1,0,0:0:0:0:
182,192,95937,1,0,0:0:0:0:
256,192,96031,1,0,0:0:0:0:
36,192,96125,1,8,0:0:0:0:
182,192,96125,1,2,0:0:0:0:
329,192,96125,1,2,0:0:0:0:
475,192,96125,1,8,0:0:0:0:
109,192,96218,1,0,0:0:0:0:
182,192,96312,1,0,0:0:0:0:
256,192,96406,1,0,0:0:0:0:
36,192,96500,1,2,0:0:0:0:
182,192,96500,1,2,0:0:0:0:
329,192,96500,1,4,0:0:0:0:
402,192,96500,1,0,0:0:0:0:
475,192,96500,1,4,0:0:0:0:
109,192,96593,1,0,0:0:0:0:
329,192,96687,1,0,0:0:0:0:
182,192,96781,1,0,0:0:0:0:
402,192,96875,1,0,0:0:0:0:
256,192,96968,1,0,0:0:0:0:
475,192,97062,1,0,0:0:0:0:
329,192,97156,1,0,0:0:0:0:
36,192,97250,1,0,0:0:0:0:
182,192,97250,1,0,0:0:0:0:
256,192,97343,1,0,0:0:0:0:
109,192,97437,1,0,0:0:0:0:
329,192,97531,1,0,0:0:0:0:
182,192,97625,1,0,0:0:0:0:
402,192,97718,1,0,0:0:0:0:
256,192,97812,1,0,0:0:0:0:
329,192,97906,1,0,0:0:0:0:
402,192,98000,1,8,0:0:0:0:
36,192,98000,1,2,0:0:0:0:
182,192,98000,1,2,0:0:0:0:
475,192,98000,1,8,0:0:0:0:
256,192,98093,1,0,0:0:0:0:
329,192,98187,1,0,0:0:0:0:
402,192,98281,1,0,0:0:0:0:
36,192,98375,1,2,0:0:0:0:
182,192,98375,1,2,0:0:0:0:
256,192,98375,1,8,0:0:0:0:
475,192,98375,1,8,0:0:0:0:
402,192,98468,1,0,0:0:0:0:
329,192,98562,1,0,0:0:0:0:
256,192,98656,1,0,0:0:0:0:
182,192,98750,1,2,0:0:0:0:
36,192,98750,1,2,0:0:0:0:
329,192,98750,1,8,0:0:0:0:
402,192,98750,1,8,0:0:0:0:
256,192,98843,1,0,0:0:0:0:
329,192,98937,1,0,0:0:0:0:
402,192,99031,1,0,0:0:0:0:
475,192,99125,1,8,0:0:0:0:
329,192,99125,1,8,0:0:0:0:
182,192,99125,1,2,0:0:0:0:
109,192,99125,1,2,0:0:0:0:
256,192,99218,1,0,0:0:0:0:
182,192,99312,1,0,0:0:0:0:
36,192,99312,1,0,0:0:0:0:
256,192,99406,1,0,0:0:0:0:
329,192,99500,1,2,0:0:0:0:
475,192,99500,1,2,0:0:0:0:
182,192,99500,1,4,0:0:0:0:
36,192,99500,1,4,0:0:0:0:
402,192,99593,1,0,0:0:0:0:
109,192,99593,1,8,0:0:0:0:
182,192,99687,1,8,0:0:0:0:
475,192,99687,1,0,0:0:0:0:
256,192,99781,1,8,0:0:0:0:
36,192,99781,1,0,0:0:0:0:
329,192,99875,1,8,0:0:0:0:
109,192,99875,1,0,0:0:0:0:
402,192,99968,1,8,0:0:0:0:
182,192,99968,1,0,0:0:0:0:
475,192,100062,1,8,0:0:0:0:
256,192,100062,1,0,0:0:0:0:
182,192,100156,1,0,0:0:0:0:
402,192,100156,1,8,0:0:0:0:
109,192,100250,1,0,0:0:0:0:
329,192,100250,1,8,0:0:0:0:
36,192,100343,1,0,0:0:0:0:
256,192,100343,1,8,0:0:0:0:
329,192,100437,1,8,0:0:0:0:
109,192,100437,1,0,0:0:0:0:
402,192,100531,1,8,0:0:0:0:
182,192,100531,1,0,0:0:0:0:
109,192,100625,1,0,0:0:0:0:
329,192,100625,1,8,0:0:0:0:
182,192,100718,1,0,0:0:0:0:
402,192,100718,1,8,0:0:0:0:
109,192,100812,1,0,0:0:0:0:
329,192,100812,1,8,0:0:0:0:
182,192,100906,1,0,0:0:0:0:
402,192,100906,1,0,0:0:0:0:
36,192,101000,1,0,0:0:0:0:
475,192,101000,128,2,101375:0:0:0:0:
256,192,101000,1,0,0:0:0:0:
182,192,101093,1,0,0:0:0:0:
329,192,101187,1,8,0:0:0:0:
109,192,101187,1,8,0:0:0:0:
36,192,101375,1,0,0:0:0:0:
402,192,101375,128,2,101750:0:0:0:0:
256,192,101562,1,8,0:0:0:0:
109,192,101562,1,8,0:0:0:0:
182,192,101750,1,0,0:0:0:0:
475,192,101750,128,2,102125:0:0:0:0:
329,192,101843,1,0,0:0:0:0:
256,192,101937,1,8,0:0:0:0:
109,192,101937,1,8,0:0:0:0:
36,192,102125,1,0,0:0:0:0:
402,192,102125,128,2,102500:0:0:0:0:
329,192,102312,1,8,0:0:0:0:
182,192,102312,1,8,0:0:0:0:
182,192,102500,1,0,0:0:0:0:
36,192,102500,128,2,102875:0:0:0:0:
475,192,102500,1,0,0:0:0:0:
109,192,102687,1,8,0:0:0:0:
402,192,102687,1,8,0:0:0:0:
329,192,102875,1,0,0:0:0:0:
182,192,102875,128,2,103250:0:0:0:0:
256,192,103062,1,8,0:0:0:0:
475,192,103062,1,8,0:0:0:0:
402,192,103156,1,0,0:0:0:0:
36,192,103250,128,2,103625:0:0:0:0:
475,192,103343,1,0,0:0:0:0:
109,192,103437,1,8,0:0:0:0:
329,192,103437,1,8,0:0:0:0:
256,192,103625,1,0,0:0:0:0:
182,192,103625,128,2,104000:0:0:0:0:
475,192,103718,1,0,0:0:0:0:
109,192,103812,1,8,0:0:0:0:
329,192,103812,1,8,0:0:0:0:
36,192,104000,1,0,0:0:0:0:
329,192,104000,1,0,0:0:0:0:
475,192,104000,128,2,104375:0:0:0:0:
109,192,104187,1,8,0:0:0:0:
402,192,104187,1,8,0:0:0:0:
36,192,104375,1,0,0:0:0:0:
256,192,104375,128,2,104750:0:0:0:0:
475,192,104562,1,8,0:0:0:0:
182,192,104562,1,8,0:0:0:0:
36,192,104656,1,0,0:0:0:0:
402,192,104750,128,2,105125:0:0:0:0:
36,192,104843,1,0,0:0:0:0:
182,192,104937,1,8,0:0:0:0:
475,192,104937,1,8,0:0:0:0:
36,192,105125,1,0,0:0:0:0:
109,192,105125,128,2,105500:0:0:0:0:
256,192,105312,1,8,0:0:0:0:
475,192,105312,1,8,0:0:0:0:
329,192,105500,128,6,107000:0:0:0:0:
36,192,105500,1,4,0:0:0:0:
475,192,105500,1,4,0:0:0:0:
182,192,105687,1,8,0:0:0:0:
402,192,105687,1,8,0:0:0:0:
36,192,105875,1,0,0:0:0:0:
109,192,106062,1,8,0:0:0:0:
475,192,106062,1,8,0:0:0:0:
36,192,106343,1,0,0:0:0:0:
256,192,106437,1,8,0:0:0:0:
402,192,106437,1,8,0:0:0:0:
36,192,106625,1,0,0:0:0:0:
182,192,106718,1,0,0:0:0:0:
109,192,106812,1,8,0:0:0:0:
475,192,106812,1,8,0:0:0:0:
36,192,107000,128,2,107375:0:0:0:0:
256,192,107000,1,0,0:0:0:0:
475,192,107000,1,0,0:0:0:0:
182,192,107187,1,8,0:0:0:0:
402,192,107187,1,8,0:0:0:0:
475,192,107375,1,0,0:0:0:0:
256,192,107375,128,2,107750:0:0:0:0:
109,192,107562,1,8,0:0:0:0:
329,192,107562,1,8,0:0:0:0:
475,192,107656,1,0,0:0:0:0:
109,192,107750,128,2,108125:0:0:0:0:
329,192,107843,1,0,0:0:0:0:
36,192,107937,1,8,0:0:0:0:
402,192,107937,1,8,0:0:0:0:
475,192,108125,1,0,0:0:0:0:
329,192,108125,128,2,108500:0:0:0:0:
36,192,108312,1,8,0:0:0:0:
402,192,108312,1,8,0:0:0:0:
475,192,108500,128,2,108875:0:0:0:0:
36,192,108500,1,4,0:0:0:0:
256,192,108500,1,0,0:0:0:0:
109,192,108687,1,8,0:0:0:0:
402,192,108687,1,8,0:0:0:0:
256,192,108875,128,2,109250:0:0:0:0:
36,192,108875,1,0,0:0:0:0:
329,192,108968,1,0,0:0:0:0:
182,192,109062,1,8,0:0:0:0:
402,192,109062,1,8,0:0:0:0:
109,192,109250,128,2,109625:0:0:0:0:
475,192,109250,1,0,0:0:0:0:
402,192,109343,1,0,0:0:0:0:
182,192,109437,1,8,0:0:0:0:
329,192,109437,1,8,0:0:0:0:
36,192,109625,128,2,110000:0:0:0:0:
475,192,109625,1,0,0:0:0:0:
329,192,109718,1,0,0:0:0:0:
182,192,109812,1,8,0:0:0:0:
402,192,109812,1,8,0:0:0:0:
182,192,110000,128,2,110375:0:0:0:0:
329,192,110000,1,0,0:0:0:0:
475,192,110000,1,4,0:0:0:0:
36,192,110187,1,8,0:0:0:0:
475,192,110187,1,8,0:0:0:0:
402,192,110375,128,2,110750:0:0:0:0:
256,192,110375,1,0,0:0:0:0:
109,192,110562,1,8,0:0:0:0:
329,192,110562,1,8,0:0:0:0:
36,192,110656,1,0,0:0:0:0:
182,192,110750,128,2,111125:0:0:0:0:
475,192,110750,1,0,0:0:0:0:
256,192,110843,1,0,0:0:0:0:
109,192,110937,1,8,0:0:0:0:
475,192,110937,1,8,0:0:0:0:
329,192,111125,128,2,111500:0:0:0:0:
36,192,111125,1,0,0:0:0:0:
109,192,111312,1,8,0:0:0:0:
402,192,111312,1,8,0:0:0:0:
475,192,111500,128,2,112250:0:0:0:0:
256,192,111500,1,0,0:0:0:0:
109,192,111500,1,4,0:0:0:0:
36,192,111593,1,0,0:0:0:0:
182,192,111687,1,8,0:0:0:0:
402,192,111687,1,8,0:0:0:0:
36,192,111781,1,0,0:0:0:0:
182,192,111875,1,0,0:0:0:0:
36,192,111968,1,0,0:0:0:0:
256,192,112062,1,8,0:0:0:0:
402,192,112062,1,8,0:0:0:0:
36,192,112156,1,0,0:0:0:0:
109,192,112250,128,2,113000:0:0:0:0:
329,192,112250,1,0,0:0:0:0:
182,192,112343,1,0,0:0:0:0:
475,192,112437,1,8,0:0:0:0:
329,192,112437,1,8,0:0:0:0:
182,192,112531,1,0,0:0:0:0:
329,192,112625,1,0,0:0:0:0:
36,192,112625,1,0,0:0:0:0:
402,192,112718,1,0,0:0:0:0:
256,192,112812,1,0,0:0:0:0:
36,192,112812,1,0,0:0:0:0:
329,192,112906,1,0,0:0:0:0:
256,192,113000,1,4,0:0:0:0:
402,192,113000,1,0,0:0:0:0:
36,192,113000,1,4,0:0:0:0:
475,192,113000,128,2,113750:0:0:0:0:
109,192,113187,1,8,0:0:0:0:
329,192,113187,1,8,0:0:0:0:
182,192,113375,1,0,0:0:0:0:
36,192,113562,1,8,0:0:0:0:
402,192,113562,1,8,0:0:0:0:
256,192,113562,1,0,0:0:0:0:
36,192,113750,1,0,0:0:0:0:
329,192,113750,128,2,114500:0:0:0:0:
182,192,113750,1,0,0:0:0:0:
109,192,113937,1,8,0:0:0:0:
402,192,113937,1,8,0:0:0:0:
182,192,114125,1,0,0:0:0:0:
109,192,114312,1,8,0:0:0:0:
402,192,114312,1,8,0:0:0:0:
36,192,114500,1,0,0:0:0:0:
182,192,114500,1,0,0:0:0:0:
475,192,114500,1,4,0:0:0:0:
256,192,114500,128,2,115250:0:0:0:0:
109,192,114687,1,8,0:0:0:0:
329,192,114687,1,8,0:0:0:0:
36,192,114875,1,0,0:0:0:0:
475,192,115062,1,8,0:0:0:0:
109,192,115062,1,8,0:0:0:0:
182,192,115250,1,0,0:0:0:0:
36,192,115250,128,2,116000:0:0:0:0:
475,192,115250,1,0,0:0:0:0:
329,192,115250,1,0,0:0:0:0:
109,192,115437,1,8,0:0:0:0:
402,192,115437,1,8,0:0:0:0:
182,192,115625,1,0,0:0:0:0:
329,192,115812,1,8,0:0:0:0:
475,192,115812,1,8,0:0:0:0:
109,192,116000,128,2,116750:0:0:0:0:
182,192,116000,1,0,0:0:0:0:
475,192,116000,1,0,0:0:0:0:
256,192,116187,1,8,0:0:0:0:
402,192,116187,1,8,0:0:0:0:
329,192,116375,1,0,0:0:0:0:
256,192,116562,1,8,0:0:0:0:
475,192,116562,1,8,0:0:0:0:
182,192,116750,128,2,117500:0:0:0:0:
475,192,116750,1,0,0:0:0:0:
36,192,116750,1,0,0:0:0:0:
256,192,116937,1,8,0:0:0:0:
402,192,116937,1,8,0:0:0:0:
329,192,117125,1,0,0:0:0:0:
109,192,117312,1,8,0:0:0:0:
475,192,117312,1,8,0:0:0:0:
256,192,117500,128,2,118250:0:0:0:0:
475,192,117500,1,0,0:0:0:0:
36,192,117500,1,0,0:0:0:0:
402,192,117687,1,8,0:0:0:0:
109,192,117687,1,8,0:0:0:0:
182,192,117875,1,0,0:0:0:0:
36,192,118062,1,8,0:0:0:0:
475,192,118062,1,8,0:0:0:0:
329,192,118250,128,2,119000:0:0:0:0:
109,192,118250,1,0,0:0:0:0:
475,192,118250,1,0,0:0:0:0:
402,192,118437,1,8,0:0:0:0:
182,192,118437,1,8,0:0:0:0:
36,192,118625,1,0,0:0:0:0:
109,192,118812,1,8,0:0:0:0:
402,192,118812,1,8,0:0:0:0:
36,192,119000,1,0,0:0:0:0:
109,192,119046,1,0,0:0:0:0:
182,192,119093,1,0,0:0:0:0:
256,192,119140,1,0,0:0:0:0:
329,192,119187,1,0,0:0:0:0:
402,192,119234,1,0,0:0:0:0:
475,192,119281,1,0,0:0:0:0:
36,192,119328,1,0,0:0:0:0:
109,192,119375,1,0,0:0:0:0:
182,192,119421,1,0,0:0:0:0:
256,192,119468,1,0,0:0:0:0:
329,192,119515,1,0,0:0:0:0:
402,192,119562,1,0,0:0:0:0:
475,192,119609,1,0,0:0:0:0:
36,192,119656,1,0,0:0:0:0:
109,192,119703,1,0,0:0:0:0:
182,192,119750,1,0,0:0:0:0:
256,192,119843,1,0,0:0:0:0:
329,192,119937,1,0,0:0:0:0:
109,192,119937,1,0,0:0:0:0:
256,192,120031,1,0,0:0:0:0:
182,192,120125,1,0,0:0:0:0:
256,192,120218,1,0,0:0:0:0:
36,192,120312,1,0,0:0:0:0:
329,192,120312,1,0,0:0:0:0:
182,192,120406,1,0,0:0:0:0:
256,192,120500,1,0,0:0:0:0:
402,192,120500,1,0,0:0:0:0:
109,192,120593,1,0,0:0:0:0:
182,192,120687,1,0,0:0:0:0:
329,192,120687,1,0,0:0:0:0:
36,192,120781,1,0,0:0:0:0:
109,192,120875,1,0,0:0:0:0:
256,192,120875,1,0,0:0:0:0:
402,192,120968,1,0,0:0:0:0:
182,192,121062,1,0,0:0:0:0:
329,192,121062,1,0,0:0:0:0:
475,192,121156,1,0,0:0:0:0:
256,192,121250,1,0,0:0:0:0:
402,192,121250,1,0,0:0:0:0:
36,192,121343,1,0,0:0:0:0:
182,192,121437,1,0,0:0:0:0:
329,192,121437,1,0,0:0:0:0:
109,192,121531,1,0,0:0:0:0:
256,192,121625,1,0,0:0:0:0:
182,192,121718,1,0,0:0:0:0:
329,192,121812,1,0,0:0:0:0:
475,192,121812,1,0,0:0:0:0:
256,192,121906,1,0,0:0:0:0:
402,192,122000,1,0,0:0:0:0:
109,192,122000,1,0,0:0:0:0:
475,192,122093,1,0,0:0:0:0:
182,192,122187,1,0,0:0:0:0:
329,192,122187,1,0,0:0:0:0:
402,192,122281,1,0,0:0:0:0:
256,192,122375,1,0,0:0:0:0:
329,192,122468,1,0,0:0:0:0:
182,192,122562,1,0,0:0:0:0:
475,192,122562,1,0,0:0:0:0:
256,192,122656,1,0,0:0:0:0:
109,192,122750,1,0,0:0:0:0:
329,192,122843,1,0,0:0:0:0:
36,192,122937,1,0,0:0:0:0:
182,192,122937,1,0,0:0:0:0:
402,192,123031,1,0,0:0:0:0:
256,192,123125,1,0,0:0:0:0:
109,192,123218,1,0,0:0:0:0:
182,192,123312,1,0,0:0:0:0:
329,192,123312,1,0,0:0:0:0:
475,192,123406,1,0,0:0:0:0:
256,192,123500,1,0,0:0:0:0:
402,192,123500,1,0,0:0:0:0:
109,192,123593,1,0,0:0:0:0:
329,192,123687,1,0,0:0:0:0:
182,192,123687,1,0,0:0:0:0:
36,192,123781,1,0,0:0:0:0:
256,192,123875,1,0,0:0:0:0:
475,192,123875,1,0,0:0:0:0:
182,192,123968,1,0,0:0:0:0:
402,192,123968,1,0,0:0:0:0:
109,192,124062,5,0,0:0:0:0:
329,192,124062,1,0,0:0:0:0:
402,192,124156,1,0,0:0:0:0:
36,192,124156,1,0,0:0:0:0:
475,192,124250,1,0,0:0:0:0:
109,192,124250,1,0,0:0:0:0:
182,192,124343,1,0,0:0:0:0:
402,192,124343,1,0,0:0:0:0:
109,192,124437,1,0,0:0:0:0:
329,192,124437,1,0,0:0:0:0:
256,192,124531,1,0,0:0:0:0:
36,192,124531,1,0,0:0:0:0:
329,192,124625,1,0,0:0:0:0:
109,192,124625,1,0,0:0:0:0:
402,192,124718,1,0,0:0:0:0:
182,192,124718,1,0,0:0:0:0:
329,192,124812,1,0,0:0:0:0:
109,192,124812,1,0,0:0:0:0:
402,192,124906,1,0,0:0:0:0:
182,192,124906,1,0,0:0:0:0:
475,192,125000,128,2,126500:0:0:0:0:
256,192,125000,1,0,0:0:0:0:
36,192,125000,1,4,0:0:0:0:
36,192,125750,1,0,0:0:0:0:
36,192,126500,1,0,0:0:0:0:
36,192,127250,1,0,0:0:0:0:
182,192,127625,1,8,0:0:0:0:
329,192,127718,1,8,0:0:0:0:
182,192,127812,1,8,0:0:0:0:
329,192,127906,1,8,0:0:0:0:
182,192,128000,1,8,0:0:0:0:
36,192,128750,1,0,0:0:0:0:
36,192,129500,1,0,0:0:0:0:
36,192,130250,1,0,0:0:0:0:
256,192,130437,1,8,0:0:0:0:
182,192,130625,1,8,0:0:0:0:
329,192,130718,1,8,0:0:0:0:
182,192,130812,1,8,0:0:0:0:
329,192,130906,1,8,0:0:0:0:
36,192,131000,1,0,0:0:0:0:
475,192,131000,1,0,0:0:0:0:
182,192,131046,1,0,0:0:0:0:
329,192,131093,1,0,0:0:0:0:
402,192,131140,1,0,0:0:0:0:
256,192,131187,1,0,0:0:0:0:
36,192,131234,1,0,0:0:0:0:
182,192,131281,1,0,0:0:0:0:
329,192,131328,1,0,0:0:0:0:
475,192,131375,1,0,0:0:0:0:
36,192,131468,1,0,0:0:0:0:
256,192,131468,1,0,0:0:0:0:
329,192,131562,1,0,0:0:0:0:
109,192,131562,1,0,0:0:0:0:
402,192,131656,1,0,0:0:0:0:
182,192,131656,1,0,0:0:0:0:
256,192,131750,128,2,132312:0:0:0:0:
475,192,131750,128,6,132312:0:0:0:0:
36,192,132312,1,0,0:0:0:0:
36,192,132500,1,0,0:0:0:0:
475,192,132500,1,0,0:0:0:0:
329,192,132546,1,0,0:0:0:0:
182,192,132593,1,0,0:0:0:0:
109,192,132640,1,0,0:0:0:0:
256,192,132687,1,0,0:0:0:0:
475,192,132734,1,0,0:0:0:0:
329,192,132781,1,0,0:0:0:0:
182,192,132828,1,0,0:0:0:0:
36,192,132875,1,0,0:0:0:0:
256,192,132968,1,0,0:0:0:0:
475,192,132968,1,0,0:0:0:0:
182,192,133062,1,0,0:0:0:0:
402,192,133062,1,0,0:0:0:0:
109,192,133156,1,0,0:0:0:0:
329,192,133156,1,0,0:0:0:0:
36,192,133250,128,6,133812:0:0:0:0:
256,192,133250,128,2,133812:0:0:0:0:
475,192,133625,1,0,0:0:0:0:
182,192,133625,1,0,0:0:0:0:
329,192,133718,1,0,0:0:0:0:
475,192,133812,1,0,0:0:0:0:
329,192,133906,1,0,0:0:0:0:
36,192,134000,1,0,0:0:0:0:
475,192,134000,1,0,0:0:0:0:
256,192,134046,1,0,0:0:0:0:
109,192,134093,1,0,0:0:0:0:
329,192,134140,1,0,0:0:0:0:
182,192,134187,1,0,0:0:0:0:
402,192,134234,1,0,0:0:0:0:
256,192,134281,1,0,0:0:0:0:
475,192,134328,1,0,0:0:0:0:
329,192,134375,1,0,0:0:0:0:
36,192,134468,1,0,0:0:0:0:
256,192,134468,1,0,0:0:0:0:
109,192,134562,1,0,0:0:0:0:
329,192,134562,1,0,0:0:0:0:
182,192,134656,1,0,0:0:0:0:
402,192,134656,1,0,0:0:0:0:
36,192,134750,128,2,135312:0:0:0:0:
475,192,134750,128,6,135312:0:0:0:0:
475,192,135500,1,0,0:0:0:0:
36,192,135500,1,0,0:0:0:0:
256,192,135546,1,0,0:0:0:0:
402,192,135593,1,0,0:0:0:0:
182,192,135640,1,0,0:0:0:0:
329,192,135687,1,0,0:0:0:0:
109,192,135734,1,0,0:0:0:0:
256,192,135781,1,0,0:0:0:0:
36,192,135828,1,0,0:0:0:0:
182,192,135875,1,0,0:0:0:0:
475,192,135968,1,0,0:0:0:0:
256,192,135968,1,0,0:0:0:0:
182,192,136062,1,0,0:0:0:0:
402,192,136062,1,0,0:0:0:0:
329,192,136156,1,0,0:0:0:0:
109,192,136156,1,0,0:0:0:0:
475,192,136250,128,6,136812:0:0:0:0:
36,192,136250,128,2,136812:0:0:0:0:
182,192,136625,1,8,0:0:0:0:
329,192,136718,1,8,0:0:0:0:
182,192,136812,1,8,0:0:0:0:
329,192,136906,1,8,0:0:0:0:
475,192,137000,1,0,0:0:0:0:
256,192,137000,128,2,139250:0:0:0:0:
36,192,137000,1,0,0:0:0:0:
36,192,137750,1,0,0:0:0:0:
36,192,138500,1,0,0:0:0:0:
182,192,139156,1,0,0:0:0:0:
475,192,139250,1,0,0:0:0:0:
329,192,139250,1,0,0:0:0:0:
36,192,139500,1,0,0:0:0:0:
182,192,139750,1,0,0:0:0:0:
475,192,140000,128,2,142250:0:0:0:0:
36,192,140000,1,0,0:0:0:0:
36,192,140750,1,0,0:0:0:0:
36,192,141500,1,0,0:0:0:0:
36,192,142250,1,0,0:0:0:0:
256,192,142343,1,0,0:0:0:0:
109,192,142437,1,0,0:0:0:0:
329,192,142531,1,0,0:0:0:0:
182,192,142625,1,0,0:0:0:0:
402,192,142718,1,0,0:0:0:0:
256,192,142812,1,0,0:0:0:0:
109,192,142906,1,0,0:0:0:0:
475,192,143000,128,2,144125:0:0:0:0:
256,192,143000,1,4,0:0:0:0:
182,192,143187,1,8,0:0:0:0:
329,192,143187,1,8,0:0:0:0:
109,192,143375,1,0,0:0:0:0:
256,192,143468,1,0,0:0:0:0:
36,192,143562,1,8,0:0:0:0:
329,192,143562,1,8,0:0:0:0:
182,192,143750,1,0,0:0:0:0:
109,192,143937,1,8,0:0:0:0:
256,192,143937,1,8,0:0:0:0:
36,192,144031,1,0,0:0:0:0:
402,192,144125,128,2,144500:0:0:0:0:
182,192,144218,1,0,0:0:0:0:
36,192,144312,1,8,0:0:0:0:
256,192,144312,1,8,0:0:0:0:
475,192,144500,128,2,146000:0:0:0:0:
109,192,144500,1,0,0:0:0:0:
329,192,144687,1,8,0:0:0:0:
182,192,144687,1,8,0:0:0:0:
109,192,144875,1,0,0:0:0:0:
256,192,144968,1,0,0:0:0:0:
36,192,145062,1,8,0:0:0:0:
402,192,145062,1,8,0:0:0:0:
182,192,145250,1,0,0:0:0:0:
109,192,145437,1,8,0:0:0:0:
329,192,145437,1,8,0:0:0:0:
256,192,145531,1,0,0:0:0:0:
182,192,145718,1,0,0:0:0:0:
402,192,145812,1,8,0:0:0:0:
109,192,145812,1,8,0:0:0:0:
256,192,145906,1,0,0:0:0:0:
36,192,146000,128,2,147500:0:0:0:0:
329,192,146000,1,0,0:0:0:0:
182,192,146093,1,0,0:0:0:0:
256,192,146187,1,8,0:0:0:0:
402,192,146187,1,8,0:0:0:0:
329,192,146375,1,0,0:0:0:0:
182,192,146562,1,8,0:0:0:0:
402,192,146562,1,8,0:0:0:0:
329,192,146750,1,0,0:0:0:0:
475,192,146937,1,8,0:0:0:0:
182,192,146937,1,8,0:0:0:0:
329,192,147031,1,0,0:0:0:0:
402,192,147218,1,0,0:0:0:0:
256,192,147312,1,8,0:0:0:0:
475,192,147312,1,8,0:0:0:0:
329,192,147500,1,0,0:0:0:0:
109,192,147500,128,2,149000:0:0:0:0:
182,192,147687,1,8,0:0:0:0:
402,192,147687,1,8,0:0:0:0:
256,192,147875,5,0,0:0:0:0:
402,192,147968,1,0,0:0:0:0:
36,192,148062,1,8,0:0:0:0:
475,192,148062,1,8,0:0:0:0:
329,192,148156,1,0,0:0:0:0:
182,192,148250,1,0,0:0:0:0:
329,192,148343,1,0,0:0:0:0:
182,192,148437,1,0,0:0:0:0:
329,192,148531,1,0,0:0:0:0:
182,192,148625,1,0,0:0:0:0:
329,192,148718,1,0,0:0:0:0:
182,192,148812,1,0,0:0:0:0:
329,192,148906,1,0,0:0:0:0:
402,192,149000,128,0,152000:0:0:0:0:
475,192,149000,1,4,0:0:0:0:
36,192,149000,1,0,0:0:0:0:
36,192,149250,1,0,0:0:0:0:
475,192,149250,1,0,0:0:0:0:
182,192,149500,1,8,0:0:0:0:
329,192,149625,1,8,0:0:0:0:
182,192,149750,1,8,0:0:0:0:
329,192,149875,1,8,0:0:0:0:
182,192,150000,1,8,0:0:0:0:
329,192,150125,1,8,0:0:0:0:
182,192,150250,1,8,0:0:0:0:
36,192,150500,1,0,0:0:0:0:
475,192,150500,1,0,0:0:0:0:
256,192,150750,1,0,0:0:0:0:
256,192,151000,1,0,0:0:0:0:
182,192,151250,5,8,0:0:0:0:
36,192,151250,1,0,0:0:0:0:
329,192,151375,1,8,0:0:0:0:
182,192,151500,1,8,0:0:0:0:
329,192,151625,1,8,0:0:0:0:
182,192,151750,1,8,0:0:0:0:
475,192,152000,5,4,0:0:0:0:
36,192,152000,1,0,0:0:0:0:
256,192,152000,128,0,155000:0:0:0:0:
36,192,152375,1,0,0:0:0:0:
329,192,152500,1,0,0:0:0:0:
475,192,152500,1,0,0:0:0:0:
182,192,152500,1,0,0:0:0:0:
36,192,152750,1,0,0:0:0:0:
36,192,153000,1,0,0:0:0:0:
36,192,153250,1,0,0:0:0:0:
182,192,153500,1,0,0:0:0:0:
475,192,153500,1,0,0:0:0:0:
36,192,153750,1,0,0:0:0:0:
36,192,153875,1,0,0:0:0:0:
182,192,154000,1,0,0:0:0:0:
475,192,154000,1,0,0:0:0:0:
109,192,154250,1,0,0:0:0:0:
475,192,154250,1,0,0:0:0:0:
36,192,154500,1,0,0:0:0:0:
36,192,154750,1,0,0:0:0:0:
36,192,155000,128,0,156125:0:0:0:0:
182,192,155000,128,0,156500:0:0:0:0:
329,192,155000,128,0,156875:0:0:0:0:
475,192,155000,128,4,164000:0:0:0:0:
